<?xml version="1.0" standalone="no"?>
<!DOCTYPE svg PUBLIC "-//W3C//DTD SVG 1.1//EN" "http://www.w3.org/Graphics/SVG/1.1/DTD/svg11.dtd" >
<svg xmlns="http://www.w3.org/2000/svg">
<metadata>Generated by IcoMoon</metadata>
<defs>
<font id="icomoon" horiz-adv-x="1024">
<font-face units-per-em="1024" ascent="960" descent="-64" />
<missing-glyph horiz-adv-x="1024" />
<glyph unicode="&#x20;" horiz-adv-x="512" d="" />
<glyph unicode="&#xe900;" glyph-name="chevron-left" d="M670.165 200.832l-225.835 225.835 225.835 225.835c16.683 16.683 16.683 43.691 0 60.331s-43.691 16.683-60.331 0l-256-256c-16.683-16.683-16.683-43.691 0-60.331l256-256c16.683-16.683 43.691-16.683 60.331 0s16.683 43.691 0 60.331z" />
<glyph unicode="&#xe901;" glyph-name="arrow_down" horiz-adv-x="1755" d="M877.714-34.743c-29.257 0-58.514 14.629-73.143 29.257l-731.429 731.429c-43.886 43.886-43.886 117.029 0 160.914s117.029 43.886 160.914 0l643.657-643.657 658.286 658.286c43.886 43.886 117.029 43.886 160.914 0s43.886-117.029 0-160.914l-731.429-731.429c-29.257-29.257-58.514-43.886-87.771-43.886z" />
<glyph unicode="&#xe902;" glyph-name="arrow_right" horiz-adv-x="585" d="M65.829-56.686c-14.629 0-29.257 7.314-36.571 14.629-21.943 21.943-21.943 58.514 0 80.457l402.286 402.286-402.286 409.6c-21.943 21.943-21.943 58.514 0 80.457s58.514 21.943 80.457 0l446.171-446.171c21.943-21.943 21.943-58.514 0-80.457l-446.171-446.171c-14.629-7.314-29.257-14.629-43.886-14.629z" />
<glyph unicode="&#xe903;" glyph-name="arrow_up" horiz-adv-x="1902" d="M1828.571-49.371c-14.629 0-29.257 7.314-36.571 14.629l-841.143 841.143-841.143-833.829c-21.943-21.943-58.514-21.943-80.457 0s-21.943 58.514 0 80.457l877.714 877.714c21.943 21.943 58.514 21.943 80.457 0l877.714-877.714c21.943-21.943 21.943-58.514 0-80.457-7.314-14.629-21.943-21.943-36.571-21.943z" />
<glyph unicode="&#xe904;" glyph-name="calendar" horiz-adv-x="967" d="M284.444 726.756c-22.756 0-45.511 17.067-45.511 45.511v130.844c0 22.756 17.067 45.511 45.511 45.511s45.511-22.756 45.511-45.511v-136.533c0-22.756-22.756-39.822-45.511-39.822zM648.533 726.756c-22.756 0-45.511 17.067-45.511 45.511v130.844c0 22.756 17.067 45.511 45.511 45.511s45.511-17.067 45.511-45.511v-136.533c0-22.756-22.756-39.822-45.511-39.822zM853.333 539.022h-773.689c-22.756 0-45.511 17.067-45.511 39.822s22.756 45.511 45.511 45.511h773.689c22.756 0 45.511-17.067 45.511-45.511s-22.756-39.822-45.511-39.822zM648.533-52.622h-364.089c-170.667 0-273.067 96.711-273.067 273.067v386.844c0 170.667 96.711 273.067 273.067 273.067h364.089c170.667 0 273.067-96.711 273.067-273.067v-386.844c0-170.667-102.4-273.067-273.067-273.067zM284.444 795.022c-125.156 0-182.044-62.578-182.044-187.733v-386.844c0-125.156 62.578-182.044 182.044-182.044h364.089c125.156 0 182.044 62.578 182.044 182.044v386.844c0 125.156-62.578 182.044-182.044 182.044h-364.089zM637.156 311.467c-34.133 0-56.889 22.756-56.889 56.889s22.756 56.889 56.889 56.889v0c34.133 0 56.889-22.756 56.889-56.889 0-28.444-28.444-56.889-56.889-56.889zM637.156 174.933c-34.133 0-56.889 22.756-56.889 56.889s22.756 56.889 56.889 56.889v0c34.133 0 56.889-22.756 56.889-56.889s-28.444-56.889-56.889-56.889zM466.489 311.467c-34.133 0-56.889 22.756-56.889 56.889s22.756 56.889 56.889 56.889v0c34.133 0 56.889-22.756 56.889-56.889 0-28.444-22.756-56.889-56.889-56.889zM466.489 174.933c-34.133 0-56.889 22.756-56.889 56.889s22.756 56.889 56.889 56.889v0c34.133 0 56.889-22.756 56.889-56.889s-22.756-56.889-56.889-56.889zM295.822 311.467c-34.133 0-56.889 22.756-56.889 56.889s22.756 56.889 56.889 56.889v0c34.133 0 56.889-22.756 56.889-56.889 0-28.444-22.756-56.889-56.889-56.889zM295.822 174.933c-34.133 0-56.889 22.756-56.889 56.889s22.756 56.889 56.889 56.889v0c34.133 0 56.889-22.756 56.889-56.889s-22.756-56.889-56.889-56.889z" />
<glyph unicode="&#xe905;" glyph-name="discord" horiz-adv-x="1331" d="M348.177 381.445c-5.12-87.040 61.439-158.72 148.48-163.84 87.038 5.12 153.598 81.92 148.478 168.96 5.12 87.040-61.44 163.84-148.478 168.96-87.041-10.24-153.6-87.040-148.48-174.080zM537.615 381.445c0-35.84-20.48-66.56-46.078-66.56-25.6 0-46.080 30.72-46.080 66.56s25.6 66.56 51.2 66.56c25.598 0 40.958-30.72 40.958-66.56zM829.455 550.4c-87.040-5.12-153.6-81.92-148.48-168.96-5.12-87.040 61.44-158.72 148.48-168.96 87.040 5.12 153.6 81.92 148.48 168.96 5.12 87.040-61.44 163.84-148.48 168.96zM829.455 320c-25.6 0-46.080 30.72-46.080 66.56s20.48 66.56 46.080 66.56c25.6 0 46.080-30.72 46.080-66.56s-20.48-66.56-46.080-66.56zM1208.32 734.727c-5.12 5.12-5.12 10.24-5.12 10.24-87.040 107.52-209.92 184.32-348.16 215.040-25.6 10.24-56.32-10.24-61.44-35.84s10.24-56.32 35.84-61.44c0 0 0 0 5.12 0 112.64-25.6 215.040-87.040 286.72-174.080 66.56-158.72 107.52-327.682 107.52-501.762-71.68-66.56-158.72-112.64-256-128v20.48c0 0 0 0 0 5.12 61.44 25.6 122.88 56.32 174.080 102.4 20.48 15.36 25.6 51.2 10.24 71.68s-51.2 25.6-71.68 10.24c-117.76-92.16-266.24-138.24-419.84-133.12-148.48-5.12-296.96 40.96-414.72 133.12-20.48 15.36-56.32 15.36-71.68-10.24s-15.36-56.32 10.24-71.68c51.2-40.96 112.64-76.8 174.080-102.4v-25.6c-97.28 15.36-184.32 61.44-256 128 0 174.080 35.84 343.042 107.52 501.762 66.56 87.040 168.96 143.36 281.6 168.96 25.6 10.24 40.96 35.84 35.84 61.44-5.12 30.72-30.72 46.080-61.44 40.96-138.24-30.72-261.12-102.4-348.16-215.040v-10.24c-102.4-204.8-112.64-389.122-122.88-568.322 0-15.36 5.12-30.72 15.36-40.96 102.4-107.52 240.64-168.96 389.12-184.32 15.36 0 25.6 5.12 35.84 15.36s15.36 20.48 15.36 35.84v51.2c133.12-30.72 276.48-30.72 409.6 0v-51.2c0-15.36 5.12-25.6 15.36-35.84s20.48-15.36 35.84-15.36c148.48 10.24 291.84 71.68 394.24 179.2 10.24 10.24 15.36 25.6 15.36 40.96-10.24 184.32-20.48 368.642-117.76 573.442zM1044.419 673.286c15.36 25.6 5.12 56.32-20.48 66.56-112.64 51.2-235.52 81.92-363.52 76.8-122.88 5.12-250.882-25.6-363.522-76.8-20.48-10.24-30.72-40.96-20.48-66.56 15.36-25.6 46.080-30.72 71.68-20.48 97.28 46.080 204.802 66.56 312.322 66.56s220.16-20.48 317.44-66.56c5.12-5.12 15.36-5.12 25.6-5.12 15.36 0 30.72 10.24 40.96 25.6z" />
<glyph unicode="&#xe906;" glyph-name="facebook" d="M829.44 960h-634.88c-107.52 0-194.56-87.040-194.56-194.56v-629.76c0-112.64 87.040-199.68 194.56-199.68h317.44c20.48 0 40.96 15.36 40.96 40.96v317.44c0 20.48-15.36 40.96-40.96 40.96h-40.96v76.8h40.96c20.48 0 40.96 15.36 40.96 40.96v133.12c0 56.32 46.080 97.28 97.28 97.28h97.28v-76.8h-40.96c-40.96 0-76.8-35.84-76.8-76.8v-81.92c0-20.48 15.36-40.96 40.96-40.96h66.56l-20.48-76.8h-46.080c-20.48 0-40.96-15.36-40.96-40.96v-158.72c0-20.48 15.36-40.96 40.96-40.96 20.48 0 40.96 15.36 40.96 40.96v117.76h40.96c20.48 0 35.84 10.24 40.96 30.72l40.96 158.72c5.12 10.24 0 25.6-5.12 35.84-10.24 10.24-20.48 15.36-30.72 15.36h-76.8v35.84h76.8c20.48 0 40.96 15.36 40.96 40.96v158.72c0 20.48-15.36 40.96-40.96 40.96h-138.24c-97.28 0-179.2-81.92-179.2-179.2v-97.28h-46.080c-25.6 0-40.96-20.48-40.96-40.96v-158.72c0-20.48 15.36-40.96 40.96-40.96h40.96v-235.52h-281.6c-66.56 0-117.76 51.2-117.76 117.76v634.88c0 66.56 51.2 117.76 117.76 117.76h629.76c66.56 0 117.76-51.2 117.76-117.76v-629.76c0-66.56-51.2-117.76-117.76-117.76h-158.72c-20.48 0-40.96-15.36-40.96-40.96 0-20.48 15.36-40.96 40.96-40.96h158.72c107.52 0 194.56 87.040 194.56 194.56v634.88c5.12 107.52-81.92 194.56-189.44 194.56z" />
<glyph unicode="&#xe907;" glyph-name="info-circle" d="M512-51.2c-275.2 0-499.2 224-499.2 499.2s224 499.2 499.2 499.2 499.2-224 499.2-499.2-224-499.2-499.2-499.2zM512 844.8c-217.6 0-396.8-179.2-396.8-396.8s179.2-396.8 396.8-396.8 396.8 179.2 396.8 396.8-179.2 396.8-396.8 396.8zM512 352c-25.6 0-51.2 19.2-51.2 51.2v224c0 25.6 19.2 51.2 51.2 51.2s51.2-19.2 51.2-51.2v-224c0-25.6-25.6-51.2-51.2-51.2zM512 204.8c-38.4 0-64 25.6-64 64s25.6 64 64 64v0c38.4 0 64-25.6 64-64s-25.6-64-64-64z" />
<glyph unicode="&#xe908;" glyph-name="instagram" d="M696.269 560.641c-20.48-10.24-30.72-30.72-25.6-51.2 30.72-87.041-10.24-179.201-97.28-215.041-87.039-30.72-179.199 10.24-215.039 97.28s10.24 174.081 97.28 209.921c35.84 15.36 81.919 15.36 117.759 0 20.48-10.24 46.080 5.12 51.2 25.6 10.24 20.48-5.12 46.080-25.6 51.2-127.999 51.2-271.359-15.36-322.559-143.36-35.84-92.161-10.24-194.561 56.32-266.241 97.28-97.28 255.999-97.28 353.279 0 71.68 71.68 92.16 174.080 56.32 266.241 0 20.48-25.6 30.719-46.080 25.6zM798.761 698.88c22.62 0 40.96 18.338 40.96 40.96s-18.34 40.96-40.96 40.96c-22.62 0-40.96-18.338-40.96-40.96s18.34-40.96 40.96-40.96zM1008.62 739.835c0 112.64-92.16 204.8-204.8 209.92-194.56 15.36-389.119 15.36-583.679 0-112.64 0-204.8-92.16-209.92-204.8-15.36-194.56-15.36-389.12 0-583.68 0-112.64 92.16-204.8 204.8-209.92 97.28-10.24 194.56-15.36 296.96-15.36s194.559 5.12 291.839 15.36c112.64 0 204.8 92.16 204.8 204.8 15.36 194.56 15.36 389.12 0 583.68zM926.7 156.155c0-66.56-56.32-122.88-122.88-122.88h-5.12c-189.44-20.48-383.999-20.48-578.559 0-66.56 0-122.88 56.32-122.88 122.88 0 0 0 0 0 5.12-15.36 194.56-15.36 384 0 578.56 0 66.56 56.32 122.88 122.88 122.88 0 0 0 0 5.12 0 97.28 10.24 189.44 15.36 286.72 15.36s194.559-5.12 291.839-15.36c66.56 0 122.88-56.32 122.88-122.88 0 0 0 0 0-5.12 15.36-189.44 15.36-384 0-578.56z" />
<glyph unicode="&#xe909;" glyph-name="link" d="M556.8 448c-12.8 0-25.6 0-32 12.8-19.2 19.2-19.2 51.2 0 70.4l364.8 364.8c19.2 19.2 51.2 19.2 70.4 0s19.2-51.2 0-70.4l-371.2-364.8c-6.4-12.8-19.2-12.8-32-12.8zM960 633.6c-25.6 0-51.2 19.2-51.2 51.2v160h-166.4c-25.6 0-51.2 19.2-51.2 51.2s19.2 51.2 51.2 51.2h217.6c25.6 0 51.2-19.2 51.2-51.2v-217.6c0-25.6-25.6-44.8-51.2-44.8zM646.4-51.2h-268.8c-249.6 0-358.4 108.8-358.4 364.8v268.8c-6.4 249.6 108.8 364.8 358.4 364.8h89.6c25.6 0 44.8-25.6 44.8-51.2s-19.2-51.2-44.8-51.2h-89.6c-198.4 0-262.4-64-262.4-262.4v-268.8c0-198.4 64-268.8 262.4-268.8h268.8c198.4 0 268.8 64 268.8 268.8v89.6c-6.4 25.6 19.2 44.8 44.8 44.8s51.2-19.2 51.2-51.2v-89.6c0-243.2-115.2-358.4-364.8-358.4z" />
<glyph unicode="&#xe90a;" glyph-name="linkedin" d="M138.24 960c-76.8 0-138.24-61.44-138.24-138.24s61.44-138.24 138.24-138.24c76.8 0 138.24 61.44 138.24 138.24s-61.44 138.24-138.24 138.24zM138.24 765.44c-30.72 0-61.44 25.6-61.44 61.44s25.6 61.44 61.44 61.44c35.84 0 61.44-25.6 61.44-61.44s-30.72-61.44-61.44-61.44zM235.52 642.55h-194.56c-25.6 0-40.96-15.36-40.96-35.84s15.36-40.96 40.96-40.96h158.72v-552.96h-122.88v435.2c0 20.48-15.36 40.96-40.96 40.96s-35.84-20.48-35.84-40.96v-471.040c0-25.6 15.36-40.96 40.96-40.96h194.56c20.48 0 40.96 15.36 40.96 40.96v629.76c0 20.48-20.48 35.84-40.96 35.84zM957.42 581.115c-46.080 46.080-107.52 66.56-168.96 66.56h-40.96c-56.32 0-107.52-10.24-158.72-35.84 0 20.48-20.48 35.84-40.96 35.84h-194.559c-20.48 0-40.96-15.36-40.96-40.96v-629.76c0-20.48 15.36-40.96 40.96-40.96h194.559c20.48 0 40.96 15.36 40.96 40.96v353.28c0 40.96 35.84 76.8 76.8 76.8s76.8-35.84 76.8-76.8v-353.28c0-20.48 15.36-40.96 40.96-40.96h194.56c20.48 0 40.96 15.36 40.96 40.96v435.2c5.12 61.44-15.36 122.88-61.44 168.96zM947.18 12.795h-117.76v317.44c0 87.040-71.68 158.72-158.72 158.72s-158.719-71.68-158.719-158.72v-317.44h-117.76v552.96h117.76v-40.96c0-15.36 10.239-30.72 25.599-35.84s30.72-5.12 40.96 10.24c35.84 40.96 66.56 66.56 168.96 66.56h40.96c40.96 0 81.92-15.36 112.64-40.96 30.72-30.72 46.080-71.68 40.96-112.64v-399.36h5.12z" />
<glyph unicode="&#xe90b;" glyph-name="list" d="M967.111 857.6h-910.222c-22.756 0-45.511 22.756-45.511 45.511s22.756 45.511 45.511 45.511h910.222c22.756 0 45.511-17.067 45.511-45.511s-22.756-45.511-45.511-45.511zM534.756 556.089h-477.867c-22.756 0-45.511 17.067-45.511 45.511s22.756 39.822 45.511 39.822h477.867c22.756 0 45.511-17.067 45.511-45.511s-22.756-39.822-45.511-39.822zM967.111 254.578h-910.222c-22.756 0-45.511 17.067-45.511 45.511s17.067 45.511 45.511 45.511h910.222c22.756 0 45.511-17.067 45.511-45.511s-22.756-45.511-45.511-45.511zM534.756-52.622h-477.867c-22.756 0-45.511 17.067-45.511 45.511s17.067 45.511 45.511 45.511h477.867c22.756 0 45.511-17.067 45.511-45.511s-22.756-45.511-45.511-45.511z" />
<glyph unicode="&#xe90c;" glyph-name="medium" horiz-adv-x="1856" d="M1728 6.4c-19.2 0-32 6.4-44.8 19.2-51.2 51.2-83.2 211.2-83.2 422.4 0 204.8 32 377.6 76.8 422.4 25.6 25.6 64 25.6 89.6 0 57.6-57.6 76.8-256 76.8-422.4 6.4-217.6-25.6-364.8-64-416-12.8-12.8-25.6-25.6-51.2-25.6 0 0 0 0 0 0zM1312-38.4c-153.6 0-275.2 211.2-275.2 486.4 0 179.2 51.2 339.2 134.4 422.4 44.8 44.8 89.6 64 140.8 64 76.8 0 153.6-57.6 204.8-147.2 51.2-96 76.8-211.2 76.8-339.2 0-268.8-128-486.4-281.6-486.4zM1312 806.4c-12.8 0-25.6 0-51.2-25.6-57.6-57.6-96-192-96-332.8 0-217.6 89.6-358.4 147.2-358.4 64 0 153.6 140.8 153.6 358.4 0 102.4-19.2 204.8-64 275.2-25.6 57.6-64 83.2-89.6 83.2zM505.6-64c-281.6 0-505.6 230.4-505.6 512 0 134.4 51.2 262.4 147.2 364.8 96 96 224 147.2 358.4 147.2 140.8 0 268.8-51.2 358.4-153.6 96-96 147.2-224 147.2-364.8 6.4-128-44.8-256-140.8-352s-230.4-153.6-364.8-153.6zM505.6 832c-102.4 0-198.4-38.4-268.8-108.8-70.4-76.8-108.8-172.8-108.8-275.2 0-211.2 166.4-384 377.6-384 102.4 0 204.8 44.8 275.2 115.2s108.8 166.4 102.4 262.4c0 108.8-38.4 204.8-108.8 275.2-70.4 76.8-166.4 115.2-268.8 115.2z" />
<glyph unicode="&#xe90d;" glyph-name="search" d="M486.4 0c-262.4 0-473.6 211.2-473.6 473.6s211.2 473.6 473.6 473.6c262.4 0 473.6-211.2 473.6-473.6s-211.2-473.6-473.6-473.6zM486.4 844.8c-211.2 0-377.6-166.4-377.6-377.6s166.4-377.6 377.6-377.6 377.6 166.4 377.6 377.6-166.4 377.6-377.6 377.6zM960-51.2c-12.8 0-25.6 6.4-32 12.8l-89.6 89.6c-19.2 19.2-19.2 51.2 0 70.4s51.2 19.2 70.4 0l89.6-89.6c19.2-19.2 19.2-51.2 0-70.4-12.8-6.4-25.6-12.8-38.4-12.8z" />
<glyph unicode="&#xe90e;" glyph-name="share" horiz-adv-x="973" d="M742.4 581.12c-107.52 0-189.44 87.040-189.44 189.44s87.040 189.44 189.44 189.44c107.52 0 189.44-87.040 189.44-189.44s-81.92-189.44-189.44-189.44zM742.4 862.72c-51.2 0-87.040-40.96-87.040-87.040 0-51.2 40.96-87.040 87.040-87.040s87.040 40.96 87.040 87.040c5.12 46.080-35.84 87.040-87.040 87.040zM184.32 258.56c-107.52 0-189.44 87.040-189.44 189.44 0 107.52 87.040 189.44 189.44 189.44s194.56-81.92 194.56-189.44c0-107.52-87.040-189.44-194.56-189.44zM184.32 535.040c-51.2 0-87.040-40.96-87.040-87.040 0-51.2 40.96-87.040 87.040-87.040 51.2 0 87.040 40.96 87.040 87.040 5.12 51.2-35.84 87.040-87.040 87.040zM742.4-69.12c-107.52 0-189.44 87.040-189.44 189.44 0 107.52 87.040 189.44 189.44 189.44 107.52 0 189.44-87.040 189.44-189.44 5.12-102.4-81.92-189.44-189.44-189.44zM742.4 212.48c-51.2 0-87.040-40.96-87.040-87.040s40.96-87.040 87.040-87.040 87.040 40.96 87.040 87.040-35.84 87.040-87.040 87.040zM624.64 140.8c-10.24 0-15.36 0-25.6 5.12l-317.44 184.32c-25.6 15.36-30.72 46.080-20.48 71.68 15.36 25.6 46.080 30.72 71.68 20.48l317.44-184.32c25.6-15.36 30.72-46.080 20.48-71.68-10.24-15.36-30.72-25.6-46.080-25.6zM307.2 468.48c-15.36 0-35.84 10.24-46.080 25.6-10.24 20.48-5.12 51.2 20.48 66.56l317.44 184.32c25.6 15.36 56.32 10.24 66.56-15.36 15.36-25.6 5.12-56.32-20.48-71.68l-312.32-184.32c-10.24-5.12-15.36-5.12-25.6-5.12z" />
<glyph unicode="&#xe90f;" glyph-name="telegram" horiz-adv-x="1178" d="M1134.433 937.244c-25.6 20.48-66.56 30.72-97.28 15.36l-988.159-399.36c-40.96-15.36-61.44-61.44-40.96-102.4 10.24-20.478 25.6-35.838 40.96-40.958l61.44-25.6c20.48-10.24 46.080 0 56.32 20.48s0 46.078-25.6 56.318l-40.96 20.48 967.679 389.12c5.12 0 5.12 0 10.24 0s5.12-5.12 5.12-10.24l-174.080-824.318c0-5.12-5.12-10.24-10.24-15.36-5.12 0-10.24 0-15.36 5.12l-348.16 266.24 337.92 343.038c15.36 15.36 15.36 46.080 0 61.44s-35.84 15.36-51.2 5.12l-496.639-291.838c-20.48-10.24-30.72-35.84-20.48-56.32s35.84-30.72 56.32-20.48c5.12 0 5.12 5.12 5.12 5.12l209.919 122.878-102.399-102.398c-35.84-30.72-35.84-87.040-5.12-122.88 5.12-5.12 10.24-5.12 10.24-10.24l343.039-266.24c20.48-15.36 40.96-20.48 61.44-20.48 10.24 0 25.6 0 35.84 5.12 35.84 10.24 56.32 40.96 66.56 76.8l174.080 824.318c15.36 30.72 5.12 66.56-25.6 92.16z" />
<glyph unicode="&#xe910;" glyph-name="twitter" horiz-adv-x="1170" d="M1136.172 813.721c-4.876 4.876-4.876 4.876-9.752 9.752 9.752 19.505 14.629 39.010 19.505 58.514 4.876 14.629-4.876 34.133-19.505 43.886s-34.133 9.752-48.762 0c-29.257-19.505-63.39-34.133-97.524-39.009-82.895 78.019-204.8 92.648-307.2 43.886-107.276-53.638-160.914-175.543-131.657-292.571 4.876-24.381 29.257-39.010 53.638-34.133s39.010 29.257 34.133 53.638c-19.505 78.019 14.629 156.038 87.771 195.048s165.79 19.505 219.429-43.886c9.752-9.752 24.381-14.629 39.010-9.752h9.752c-14.629-19.505-14.629-43.886 0-63.39 4.876-4.876 9.752-4.876 14.629-9.752-9.752-9.752-19.505-24.381-14.629-39.010 14.629-185.295-63.39-370.592-209.676-487.621-151.162-131.657-360.839-165.79-546.134-97.524 73.143 14.629 141.41 43.886 195.048 92.648 9.752 14.629 14.629 29.257 4.876 48.762-9.752 14.629-24.381 24.381-39.010 24.381-48.762 0-97.524 24.381-131.657 58.514 14.629 4.876 29.257 9.752 43.886 14.629 14.629 9.752 24.381 24.381 24.381 43.886s-14.629 34.133-34.133 34.133c-58.514 14.629-107.276 53.64-131.657 107.278 9.752 0 19.505 0 34.133-4.876 19.505 0 34.133 9.752 43.886 24.381 4.876 19.505 0 39.010-14.629 48.762-73.143 63.39-87.771 136.533-78.019 185.295 82.895-87.771 185.295-146.286 302.324-170.667 24.381-4.876 48.762 9.752 53.639 34.133s-9.752 48.762-34.134 53.638c-117.029 29.257-219.429 92.648-292.571 190.171-9.752 9.752-19.505 14.629-34.133 14.629s-24.381-4.876-34.133-14.629c-58.514-73.143-63.39-180.419-14.629-258.438h-4.876c-14.629-4.876-19.505-19.505-24.381-34.133 0-73.143 29.257-146.287 82.895-195.049-9.752-9.752-14.629-29.257-9.752-43.886 24.381-68.267 73.143-121.905 136.533-156.038-68.267-24.381-141.41-39.010-209.676-39.010-24.381 0-43.886-19.505-43.886-43.886 0-14.629 9.752-29.257 19.505-39.010 112.152-68.267 238.933-107.276 365.714-107.276 151.162 0 297.448 58.514 414.477 156.038 160.914 131.657 253.562 326.705 243.81 536.382 34.133 24.381 58.514 58.514 68.267 97.524 19.505 29.257 14.629 43.886 4.876 53.638z" />
<glyph unicode="&#xe911;" glyph-name="wallet" d="M932.978 772.267h-341.333c-11.378 5.689-22.756 11.378-34.133 11.378h-415.289c-17.067 0-34.133 17.067-34.133 34.133s17.067 34.133 34.133 34.133h699.733c34.133 0 56.889 22.756 56.889 56.889s-22.756 56.889-56.889 56.889h-699.733c-85.333 5.689-153.6-62.578-153.6-147.911 0-17.067 5.689-34.133 11.378-51.2v-688.356c0-79.644 62.578-142.222 142.222-142.222h790.756c51.2 0 91.022 39.822 91.022 91.022v654.222c0 51.2-39.822 91.022-91.022 91.022zM836.267 260.267c-51.2 0-91.022 39.822-91.022 91.022s39.822 91.022 91.022 91.022 91.022-39.822 91.022-91.022c5.689-45.511-39.822-91.022-91.022-91.022z" />
<glyph unicode="&#xe912;" glyph-name="x" d="M73.143-64c-21.943 0-36.571 7.314-51.2 21.943-29.257 29.257-29.257 73.143 0 102.4l877.714 877.714c29.257 29.257 73.143 29.257 102.4 0s29.257-73.143 0-102.4l-877.714-877.714c-14.629-14.629-29.257-21.943-51.2-21.943zM950.857-64c-21.943 0-36.571 7.314-51.2 21.943l-877.714 877.714c-29.257 29.257-29.257 73.143 0 102.4s73.143 29.257 102.4 0l877.714-877.714c29.257-29.257 29.257-73.143 0-102.4-14.629-14.629-29.257-21.943-51.2-21.943z" />
<glyph unicode="&#xe913;" glyph-name="cheveron-left" d="M360.96 496.998l-36.198-36.198 289.638-289.638 72.397 72.397-217.19 217.242 217.19 217.242-72.397 72.397z" />
<glyph unicode="&#xe914;" glyph-name="coinmarketcap" horiz-adv-x="1069" d="M903.773 350.573c-16.584-12.435-41.459-12.435-58.039-4.145-20.729 12.439-33.169 37.314-33.169 74.623v111.937c0 53.894-20.729 91.206-58.039 103.643-62.188 16.583-107.792-58.040-128.521-82.915l-107.787-174.12v211.432c0 49.749-16.584 78.769-49.749 87.061-20.729 4.145-49.75 4.145-78.771-41.458l-244.599-381.411c-33.166 62.188-49.749 128.521-49.749 194.854 0 232.16 190.704 418.719 422.867 418.719s422.867-186.559 422.867-418.719c4.145-49.753-8.294-82.917-37.314-99.502zM1040.584 450.075c-4.145 281.909-236.308 509.925-522.365 509.925s-518.22-228.016-518.22-509.925c0-281.912 232.162-509.93 518.22-509.93 132.661 0 257.037 49.749 352.39 136.811 20.725 16.584 20.725 45.604 4.145 66.333-8.294 8.29-20.729 12.435-33.169 16.58-12.435 0-24.874-4.145-33.164-12.435-78.768-70.478-182.414-111.937-290.202-111.937-124.374 0-236.309 53.894-315.078 140.956l219.725 344.097v-157.538c0-74.623 29.020-99.497 58.039-107.792 24.874-8.29 66.333-4.145 107.792 62.188l120.227 190.704c4.145 4.145 8.29 12.437 12.435 16.583v-103.645c0-70.478 29.019-128.516 82.917-157.536 45.604-24.874 103.642-24.874 153.391 4.145 53.894 37.309 82.917 103.642 82.917 182.414z" />
<glyph unicode="&#xe915;" glyph-name="pancakeswap" d="M182.557 800.105c-15.947 83.095 48.262 159.895 131.357 159.895 73.863 0 134.715-60.852 134.715-134.295v-166.61c19.305 0 38.61 3.357 57.495 3.357 19.305 0 35.254 0 54.557-3.357v166.61c0 73.443 60.851 134.295 134.717 134.295 83.092 0 147.302-76.8 134.712-159.895l-35.251-195.148c125.061-54.557 221.169-150.242 221.169-269.008v-73.446c0-99.041-64.21-182.554-156.959-236.692-92.749-57.498-214.451-89.81-352.525-89.81-137.653 0-259.357 31.892-352.524 89.81-89.81 54.139-154.020 137.231-154.020 236.692v73.446c0 118.346 92.747 214.451 217.81 269.008l-35.253 195.148zM746.598 579.357l41.544 230.4c9.656 57.495-31.892 112.053-92.744 112.053-51.2 0-92.749-41.548-92.749-92.748v-211.095c-13.010 3.358-28.959 3.358-41.549 3.358-19.302 0-35.251 3.357-54.557 3.357s-38.61 0-57.495-3.357c-13.010 0-28.958-3.358-41.548-3.358v207.738c-0.419 51.2-42.387 92.748-93.587 92.748-57.495 0-102.399-54.557-89.809-112.052l41.547-230.4c-134.714-51.2-224.105-141.010-224.105-242.99v-73.861c0-156.959 208.157-284.959 464.577-284.959 256.418 0 464.577 128 464.577 284.959v73.441c3.359 105.759-86.451 195.567-224.102 246.767zM217.436 815.633c-13.010 59.174 33.154 114.99 92.328 114.99 52.459 0 112.052-42.807 112.052-95.266v-187.593c16.787 1.679 29.377-4.197 42.387-10.492 12.59-5.875 25.181-12.17 42.807-12.17 15.527 0 27.697 5.875 39.448 11.75 13.010 6.296 25.6 12.591 42.808 10.912v187.593c0 52.459 59.592 95.266 112.051 95.266 59.177 0 105.339-55.816 95.268-114.99l-42.808-236.695c138.071-52.459 233.759-144.787 233.759-249.706 0-161.152-214.031-292.511-477.168-292.511-263.134 0-477.167 131.359-477.167 292.511 0 105.339 92.328 197.247 230.4 249.706l-46.164 236.695zM375.233 352.732c0-42.803-23.082-78.894-52.459-78.894s-52.459 36.091-52.459 78.894c0 42.808 23.082 78.899 52.459 78.899s52.459-36.511 52.459-78.899zM687.887 273.838c29.798 0 52.46 36.091 52.46 78.894 0 42.808-23.081 78.899-52.46 78.899-29.793 0-52.46-36.091-52.46-78.899 0-42.803 23.086-78.894 52.46-78.894z" />
<glyph unicode="&#xe916;" glyph-name="coinbase" d="M1024 448c0 282.88-229.12 512-512 512s-512-229.12-512-512c0-282.88 229.12-512 512-512s512 229.12 512 512zM810.667 448c0-165.12-133.547-298.667-298.667-298.667s-298.667 133.547-298.667 298.667c0 165.12 133.547 298.667 298.667 298.667s298.667-133.547 298.667-298.667zM458.667 544h106.667c23.467 0 42.667-19.2 42.667-42.667v-106.667c0-23.467-19.2-42.667-42.667-42.667h-106.667c-23.467 0-42.667 19.2-42.667 42.667v106.667c0 23.467 19.2 42.667 42.667 42.667z" />
<glyph unicode="&#xe917;" glyph-name="trustwallet" horiz-adv-x="887" d="M890.88 809.813c-3.413 17.067-17.067 30.72-37.547 37.547v3.413l-34.133 3.413v-3.413c-64.853 0-208.213 3.413-334.507 98.987l-23.893 17.067v-3.413c-13.653 3.413-23.893 3.413-37.547 0v0 0c-3.413 0-10.24-3.413-13.653-6.827l-10.24-10.24c-126.293-95.573-269.653-98.987-331.093-98.987v3.413h-17.067c-6.827 0-10.24 0-17.067-3.413v0c-17.067-3.413-30.72-17.067-37.547-37.547h-3.413v-30.72c3.413-163.84 10.24-290.133 27.307-392.533 13.653-95.573 37.547-167.253 75.093-221.867 30.72-47.787 71.68-85.333 136.533-119.467 17.067-10.24 37.547-20.48 58.027-34.133 34.133-17.067 68.267-37.547 109.227-64.853v0l13.653-10.24c3.413-3.413 6.827-3.413 13.653-6.827l6.827-3.413c10.24-3.413 20.48-3.413 30.72 0l3.413-3.413 13.653 10.24c44.373 30.72 88.747 54.613 122.88 75.093 20.48 10.24 40.96 23.893 58.027 34.133 64.853 37.547 105.813 75.093 136.533 119.467 37.547 58.027 61.44 126.293 75.093 221.867 13.653 88.747 20.48 208.213 27.307 402.773v17.067l-10.24 6.827zM286.72 140.8c-47.787 27.307-78.507 51.2-102.4 85.333-27.307 40.96-44.373 92.16-58.027 177.493-13.653 78.507-20.48 184.32-23.893 334.507 78.507 3.413 211.627 20.48 337.92 102.4 126.293-85.333 259.413-98.987 337.92-102.4-3.413-150.187-10.24-256-23.893-334.507-13.653-85.333-30.72-139.947-58.027-177.493-23.893-37.547-54.613-58.027-102.4-85.333-17.067-10.24-37.547-20.48-54.613-34.133-30.72-17.067-61.44-37.547-98.987-61.44-40.96 27.307-78.507 47.787-112.64 64.853-10.24 17.067-27.307 23.893-40.96 30.72z" />
<glyph unicode="&#xe918;" glyph-name="walletconnect" horiz-adv-x="1676" d="M342.081 759.897c272.464 266.779 714.217 266.779 986.676 0l32.81-32.087c13.652-13.314 13.652-34.984 0-48.297l-112.193-109.854c-6.796-6.685-17.878-6.685-24.674 0l-45.126 44.175c-190.068 186.116-498.241 186.116-688.365 0l-48.354-47.295c-6.796-6.685-17.882-6.685-24.678 0l-112.082 109.854c-13.648 13.314-13.648 34.984 0 48.297l35.987 35.207zM1560.776 532.781l99.826-97.767c13.647-13.312 13.647-34.984 0-48.296l-450.164-440.753c-13.652-13.312-35.71-13.312-49.357 0l-319.479 312.795c-3.398 3.342-8.913 3.342-12.311 0l-319.535-312.795c-13.647-13.312-35.705-13.312-49.355 0l-450.165 440.753c-13.648 13.312-13.648 34.984 0 48.296l99.826 97.767c13.648 13.314 35.708 13.314 49.356 0l319.478-312.849c3.398-3.342 8.913-3.342 12.311 0l319.479 312.849c13.647 13.314 35.705 13.314 49.357 0l319.474-312.849c3.398-3.342 8.913-3.342 12.311 0l319.479 312.793c13.759 13.37 35.821 13.37 49.469 0.056z" />
<glyph unicode="&#xe919;" glyph-name="gate" horiz-adv-x="1106" d="M0 960h1077.424v-1024h-1077.424v1024z" />
<glyph unicode="&#xe91a;" glyph-name="uniswap" horiz-adv-x="983" d="M0 960h961.671v-1024h-961.671v1024z" />
<glyph unicode="&#xe91b;" glyph-name="play" d="M204.8 768l614.4-307.2-614.4-307.2z" />
<glyph unicode="&#xe91c;" glyph-name="Vector" horiz-adv-x="585" d="M512-56.686c-14.629 0-29.257 7.314-36.571 14.629l-446.171 446.171c-21.943 21.943-21.943 58.514 0 80.457l446.171 446.171c21.943 21.943 58.514 21.943 80.457 0s21.943-58.514 0-80.457l-409.6-409.6 402.286-402.286c21.943-21.943 21.943-58.514 0-80.457-7.314-7.314-21.943-14.629-36.571-14.629z" />
<glyph unicode="&#xe91d;" glyph-name="world" d="M512 960c-281.6 0-512-230.4-512-512s230.4-512 512-512c281.6 0 512 230.4 512 512s-230.4 512-512 512zM774.4 294.4c6.4 51.2 12.8 102.4 12.8 153.6s-6.4 102.4-12.8 153.6c108.8-38.4 172.8-96 172.8-153.6s-70.4-115.2-172.8-153.6zM76.8 448c0 57.6 64 115.2 172.8 153.6-6.4-51.2-12.8-102.4-12.8-153.6s6.4-102.4 12.8-153.6c-108.8 38.4-172.8 96-172.8 153.6zM332.8 844.8c-32-44.8-51.2-96-64-153.6-51.2-12.8-102.4-38.4-153.6-64 44.8 96 121.6 172.8 217.6 217.6zM115.2 268.8c51.2-32 108.8-57.6 172.8-70.4h6.4c70.4-19.2 147.2-25.6 217.6-25.6 25.6 0 44.8 0 70.4 0 19.2 0 38.4 19.2 38.4 44.8-6.4 19.2-25.6 38.4-44.8 38.4s-44.8 0-64 0c-57.6 0-121.6 6.4-179.2 19.2-12.8 51.2-19.2 115.2-19.2 172.8 0 256 102.4 435.2 198.4 435.2 38.4 0 76.8-32 115.2-83.2 6.4-12.8 19.2-19.2 32-19.2 6.4 0 12.8 0 19.2 6.4 19.2 12.8 25.6 38.4 12.8 51.2 0 0 0 0 0 6.4 96-44.8 172.8-121.6 217.6-217.6-57.6 32-115.2 57.6-179.2 70.4-70.4 19.2-147.2 25.6-217.6 25.6-25.6 0-44.8 0-70.4 0-19.2-6.4-38.4-19.2-38.4-44.8 6.4-19.2 25.6-38.4 44.8-38.4s44.8 0 64 0c57.6 0 121.6-6.4 179.2-19.2 12.8-51.2 19.2-115.2 19.2-172.8 0-256-102.4-435.2-198.4-435.2-38.4 0-76.8 32-115.2 83.2-12.8 19.2-32 25.6-51.2 19.2-19.2-12.8-25.6-32-19.2-51.2v-6.4c0 0 0 0 0-6.4-89.6 44.8-166.4 121.6-211.2 217.6zM691.2 51.2c32 44.8 51.2 96 64 153.6 51.2 12.8 102.4 38.4 153.6 64-44.8-96-121.6-172.8-217.6-217.6z" />
<glyph unicode="&#xe91e;" glyph-name="comment-icon" horiz-adv-x="1280" d="M1086.577-63.995c-5.688 0-5.688 0-11.377 0l-108.088 22.758c-28.442-5.693-56.888-11.382-91.023-11.382-210.488 0-381.154 153.6-381.154 341.335 0 187.733 170.665 341.333 381.154 341.333s381.158-153.6 381.158-341.333c0-91.023-39.823-170.665-102.4-233.247l-5.688-62.577c0-28.442-28.447-56.888-62.582-56.888zM967.112 38.405c5.688 0 5.688 0 11.377 0l91.023-17.065 5.688 51.2c0 17.065 11.377 34.13 22.758 39.823 51.2 45.507 79.642 108.088 79.642 176.353 0 142.223-136.53 261.689-301.512 261.689-164.977 0-301.512-119.465-301.512-261.689s136.535-261.688 301.512-261.688c22.758 0 51.2 0 73.958 5.688 11.377 5.688 17.065 5.688 17.065 5.688zM216.178 123.73c-11.378 0-22.755 5.688-34.133 5.688-22.756 11.377-34.134 34.13-34.134 56.888v91.023c-91.022 68.265-147.911 176.353-147.911 290.131 0 216.178 199.111 392.533 438.045 392.533 159.29 5.689 312.89-79.644 392.532-216.178 11.377-17.066 5.688-45.511-11.377-56.889s-45.512-5.689-56.888 11.378c-68.265 113.778-193.423 176.356-324.267 176.356-199.111 0-358.4-136.534-358.4-312.889 0-91.022 45.511-176.354 119.466-233.243 17.066-5.693 28.445-22.758 28.445-45.512v-68.27l68.266 39.823c17.066 11.377 34.134 11.377 51.2 5.688s34.134-5.688 51.2-5.688c22.755 0 39.822-22.753 39.822-45.512 0-22.753-22.756-39.823-45.511-39.823-17.067 0-39.822 5.693-56.889 11.382l-85.334-51.2c-5.689 0-22.755-5.688-34.134-5.688zM301.511 595.915c25.135 0 45.511 20.376 45.511 45.511s-20.376 45.511-45.511 45.511c-25.135 0-45.511-20.376-45.511-45.511s20.376-45.511 45.511-45.511zM568.888 595.915c25.134 0 45.512 20.376 45.512 45.511s-20.378 45.511-45.512 45.511c-25.134 0-45.512-20.376-45.512-45.511s20.378-45.511 45.512-45.511zM728.177 345.605c21.996 0 39.823 17.828 39.823 39.823 0 21.99-17.828 39.823-39.823 39.823-21.99 0-39.818-17.833-39.818-39.823 0-21.996 17.828-39.823 39.818-39.823zM972.8 345.605c21.996 0 39.823 17.828 39.823 39.823 0 21.99-17.828 39.823-39.823 39.823-21.99 0-39.823-17.833-39.823-39.823 0-21.996 17.833-39.823 39.823-39.823z" />
<glyph unicode="&#xe91f;" glyph-name="dabble-arrow" d="M874.020-63.995h-413.736c-77.576 0-139.637 62.060-139.637 139.638v418.908c0 77.576 62.061 139.636 139.637 139.636h413.736c77.578 0 139.638-62.061 139.638-139.636v-418.908c-5.171-77.578-62.060-139.638-139.638-139.638zM460.283 541.096c-25.859 0-46.545-20.687-46.545-46.545v-418.908c0-25.861 20.687-46.546 46.545-46.546h413.736c25.861 0 46.546 20.685 46.546 46.546v418.908c0 25.859-20.685 46.545-46.546 46.545h-413.736zM181.010 266.988h-41.374c-77.576 0-139.636 62.065-139.636 139.638v413.738c0 77.576 62.061 139.636 139.636 139.636h413.738c77.573 0 139.638-62.061 139.638-139.636v-46.545c0-25.859-20.69-46.545-46.546-46.545-25.861 0-46.546 20.687-46.546 46.545v46.545c0 25.859-20.69 46.545-46.546 46.545h-413.738c-25.859 0-46.545-20.687-46.545-46.545v-418.91c0-25.856 20.687-46.546 46.545-46.546h46.545c25.859 0 46.545-20.685 46.545-46.546 0-25.856-25.859-41.375-51.717-41.375z" />
<glyph unicode="&#xe920;" glyph-name="sms-icon" horiz-adv-x="1536" d="M1432.303 616.5c-25.924 0-51.849-19.443-51.849-51.848v-460.153c0-38.884-32.404-64.808-64.808-64.808h-1153.621c-38.886 0-64.81 32.404-64.81 64.808v460.153c0 25.924-19.443 51.848-51.848 51.848-25.924 0-45.367-25.924-45.367-51.848v-460.153c0-45.369 19.443-84.252 45.367-116.656 32.405-32.404 71.291-45.369 116.658-45.369h1153.621c45.369 0 84.252 19.445 116.656 45.369 32.404 32.404 45.369 71.287 45.369 116.656v460.153c6.48 25.924-19.445 51.848-45.369 51.848zM712.909 292.454c19.445-12.959 38.889-12.959 58.334 0l680.505 512.001c19.445 12.962 25.924 38.886 12.959 58.329-6.48 19.443-19.439 32.405-32.404 45.367-32.404 32.405-71.293 51.848-116.656 51.848h-1153.622c-38.886 0-84.253-19.443-116.658-45.367-12.962-19.443-19.443-32.405-32.405-45.367-6.481-25.924 0-51.848 19.443-64.81l680.504-512.001zM149.063 862.785c6.481 0 12.962 0 19.443 0h1153.62c6.48 0 12.959 0 19.445 0h19.439l-609.212-460.152-622.178 453.671 19.443 6.481z" />
</font>
</defs>
</svg>
